Karwaan 2018 Full Movie Free Download In 720p WEB-DL + HDRip Encoded In x264.

Karwaan 2018 Movie 720p HD Full Free Download HDRrp + WEB-DL

Details Of Full Length Free Videos

Title: Karwaan 2018 Movie
Genres: Comedy | Drama
Country: India
Language: Hindi
Release Date: 3 August 2018
Quality: HDRip | 720p WEB-Dl
Format: MKV
Size: 700-MB | 1-GB

IMDb

Storyline

Karwaan Movie Free Download 720p HD Quality The movie depicts a journey carried out from Bangalore to Kochi by two friends, the reserved Avinash played by Dulquer Salmaan, and his friend Shaukat played by Irrfan Khan with a lighter take on life, who pick up the chirpy teenager Mithila on the way Karwaan Movie Download In 720p.

Plot

Karwaan Full Hd 720p Movie Download The film is a light-hearted comedy, in which Dulquer Salmaan plays a guy who lives in Bengaluru. It is a road trip with a difference. These aren’t three friends out on an adventure, but rather three misfits on a journey that goes a bit too off-track. Avinash (Dulquer Salman) is a repressed young man who hates his IT job, loathes his boss and would rather become a photographer, but for his father (Akaash Khurana). His father passes away in a road accident and his body reaches another family by mistake. Avinash’s friend Shaukat (Irrfan Khan) offers his van and company to travel from Bangalore and exchange the body in Kochi. Enroute, Karwaan Movie Download 700mb Tanya (Mithila Palkar), the grand-daughter of the now-deceased person with whom the other body was exchanged, joins them. It is a trip that neither of them wishes to be part of but end up enduring it.

Karwaan is a 2018 Indian Hindi-language comedy-drama road movie written and directed by debutant Akarsh Khurana, produced by Ronnie Screwvala and Priti Rathi Gupta. The film stars Dulquer Salman, Irrfan Khan and Mithila Palkar. The film marks the Bollywood debut of Dulquer Salman. It was released on 3 August 2018. The film received positive reviews from critics Download Karwaan Full Movie 720p.

Cast

  • Dulquer Salman as Avinash
  • Irrfan Khan as Shaukat
  • Mithila Palkar as Tanya
  • Kriti Kharbanda as Rumana (Cameo appearance)
  • Amala Akkineni as Tahira
  • Akash Khurana as Avinash’s father
  • Siddharth Menon as Groom at Wedding (cameo appearance)

Karwaan 2018 HDRip x264 Movie - 700 MB

Karwaan 2018 HDRip x264 Movie - 700 MB

General
Unique ID : 227194847811349659582656361396374666589 (0xAAEC22D4E56C1C425A0D61B63B68FD5D)
Complete name : www.MovCr.cc – Karwaan (2018) Hindi HDRip – 700MB – x264 – MP3 [MovCr].mkv
Format : Matroska
Format version : Version 4 / Version 2
File size : 709 MiB
Duration : 1 h 53 min
Overall bit rate mode : Variable
Overall bit rate : 870 kb/s
Movie name : www.MovCr.cc
Encoded date : UTC 2018-09-30 19:59:22
Writing application : mkvmerge v26.0.0 (‘In The Game’) 64-bit
Writing library : libebml v1.3.6 + libmatroska v1.4.9

Video
ID : 1
Format : AVC
Format/Info : Advanced Video Codec
Format profile : [email protected]
Format settings : CABAC / 4 Ref Frames
Format settings, CABAC : Yes
Format settings, RefFrames : 4 frames
Codec ID : V_MPEG4/ISO/AVC
Duration : 1 h 53 min
Bit rate : 772 kb/s
Width : 720 pixels
Height : 304 pixels
Display aspect ratio : 2.35:1
Frame rate mode : Constant
Frame rate : 25.000 FPS
Color space : YUV
Chroma subsampling : 4:2:0
Bit depth : 8 bits
Scan type : Progressive
Bits/(Pixel*Frame) : 0.141
Stream size : 629 MiB (89%)
Title : www.MovCr.cc
Writing library : x264 core 155 r2901 7d0ff22
Encoding settings : cabac=1 / ref=3 / deblock=1:0:0 / analyse=0x3:0x113 / me=hex / subme=7 / psy=1 / psy_rd=1.00:0.00 / mixed_ref=1 / me_range=16 / chroma_me=1 / trellis=1 / 8x8dct=1 / cqm=0 / deadzone=21,11 / fast_pskip=1 / chroma_qp_offset=-2 / threads=9 / lookahead_threads=1 / sliced_threads=0 / nr=0 / decimate=1 / interlaced=0 / bluray_compat=0 / constrained_intra=0 / bframes=3 / b_pyramid=2 / b_adapt=1 / b_bias=0 / direct=1 / weightb=1 / open_gop=0 / weightp=2 / keyint=250 / keyint_min=25 / scenecut=40 / intra_refresh=0 / rc_lookahead=40 / rc=2pass / mbtree=1 / bitrate=772 / ratetol=1.0 / qcomp=0.60 / qpmin=0 / qpmax=69 / qpstep=4 / cplxblur=20.0 / qblur=0.5 / ip_ratio=1.40 / aq=1:1.00
Language : Hindi
Default : Yes
Forced : No

Audio
ID : 2
Format : MPEG Audio
Format version : Version 1
Format profile : Layer 3
Format settings : Joint stereo / MS Stereo
Codec ID : A_MPEG/L3
Codec ID/Hint : MP3
Duration : 1 h 53 min
Bit rate mode : Variable
Bit rate : 96.0 kb/s
Channel(s) : 2 channels
Sampling rate : 48.0 kHz
Frame rate : 41.667 FPS (1152 SPF)
Compression mode : Lossy
Stream size : 78.3 MiB (11%)
Title : www.MovCr.cc
Writing library : LAME3.99r
Encoding settings : -m j -V 4 -q 3 -lowpass 15.1 –abr 96
Language : Hindi
Default : Yes
Forced : No

Karwaan 2018 WEB-DL 720p x264 - 1 GB

Karwaan 2018 WEB-DL 720p x264 - 1 GB

General
Format : Matroska
Format version : Version 4 / Version 2
File size : 1.05 GiB
Duration : 1 h 53 min
Overall bit rate : 1 317 kb/s

Video
ID : 1
Format : AVC
Format/Info : Advanced Video Codec
Format profile : [email protected]
Format settings : CABAC / 4 Ref Frames
Format settings, CABAC : Yes
Format settings, RefFrames : 4 frames
Codec ID : V_MPEG4/ISO/AVC
Duration : 1 h 53 min
Bit rate : 1 200 kb/s
Width : 1 280 pixels
Height : 540 pixels
Display aspect ratio : 2.40:1
Frame rate mode : Constant
Frame rate : 25.000 FPS
Color space : YUV
Chroma subsampling : 4:2:0
Bit depth : 8 bits
Scan type : Progressive
Bits/(Pixel*Frame) : 0.069
Stream size : 967 MiB (90%)
Writing library : x264 core 155 r2901 7d0ff22
Default : Yes
Forced : No

Audio
ID : 2
Format : AAC
Format/Info : Advanced Audio Codec
Format profile : LC
Codec ID : A_AAC-2
Duration : 1 h 53 min
Bit rate : 129 kb/s
Channel(s) : 2 channels
Channel positions : Front: L R
Sampling rate : 48.0 kHz
Frame rate : 46.875 FPS (1024 SPF)
Compression mode : Lossy
Stream size : 105 MiB (10%)
Language : Hindi
Default : Yes
Forced : No

Images, Screenshots Of Full Episodes

Some Images Of Karwaan 720p Full Movie

Karwaan 2018 Movie 720p HD Full Free Download HDRrp + WEB-DL

Karwaan 2018 Movie 720p HD Full Free Download HDRrp + WEB-DL

Karwaan 2018 Movie 720p HD Full Free Download HDRrp + WEB-DL

Karwaan 2018 Movie 720p HD Full Free Download HDRrp + WEB-DL

Karwaan 2018 Movie 720p HD Full Free Download HDRrp + WEB-DL

Karwaan 2018 Movie 720p HD Full Free Download HDRrp + WEB-DL

Karwaan 2018 Movie 720p HD Full Free Download HDRrp + WEB-DL

Watch The Full HD 720p, 1080p Movie Trailers

Watch Karwaan 2018 Movie Trailer

Direct Download Links Of Karwaan 2018 Full Movie 720p HD Given Below

Free Download Direct Links HD

Direct Links For Premium Users

If you are the member of this site then enter your login details and Enjoy Direct Links

Leave a Reply

Your email address will not be published. Required fields are marked *

Check Also

The Choice Season 1 [ULLU] – Complete

The Choice Ullu Web Series 2019 Season 1 All Episodes Free Download In 720p WEB-Dl Quality…